<?xml version="1.0" standalone="no"?>
<!DOCTYPE svg PUBLIC "-//W3C//DTD SVG 1.1//EN" "http://www.w3.org/Graphics/SVG/1.1/DTD/svg11.dtd" >
<svg xmlns="http://www.w3.org/2000/svg">
<metadata></metadata>
<defs>
<font id="spin_cycle_otregular" horiz-adv-x="652" >
<font-face units-per-em="1000" ascent="750" descent="-250" />
<missing-glyph horiz-adv-x="325" />
<glyph unicode="&#xfb01;" horiz-adv-x="877" d="M25 0v159h101q15 0 37 17.5t31 41.5l94 252q26 70 90.5 116.5t135.5 46.5h110v-159h-110q-20 0 -44.5 -18t-33.5 -41l-15 -42h88v-158h-147l-20 -52q-25 -70 -87 -116.5t-129 -46.5h-101zM662 557q0 42 29.5 71.5t71.5 29.5t71.5 -29.5t29.5 -71.5t-29.5 -71.5 t-71.5 -29.5t-71.5 29.5t-29.5 71.5zM684 1v420h158v-420h-158z" />
<glyph unicode="&#xfb02;" horiz-adv-x="1177" d="M25 0v159h101q15 0 37 17.5t31 41.5l94 252q26 70 90.5 116.5t135.5 46.5h110v-159h-110q-20 0 -44.5 -18t-33.5 -41l-15 -42h88v-158h-147l-20 -52q-25 -70 -87 -116.5t-129 -46.5h-101zM674 633h166l145 -418q11 -29 25.5 -43.5t41.5 -14.5h100v-157h-100 q-69 0 -130 47.5t-84 114.5z" />
<glyph horiz-adv-x="1000" />
<glyph horiz-adv-x="1000" />
<glyph horiz-adv-x="333" />
<glyph unicode="&#xd;" horiz-adv-x="325" />
<glyph unicode=" "  horiz-adv-x="325" />
<glyph unicode="&#x09;" horiz-adv-x="325" />
<glyph unicode="&#xa0;" horiz-adv-x="325" />
<glyph unicode="!" horiz-adv-x="252" d="M25 78q0 42 29.5 71.5t71.5 29.5t71.5 -29.5t29.5 -71.5q0 -41 -29.5 -71t-71.5 -30t-71.5 30t-29.5 71zM36 632h191l-16 -410h-159z" />
<glyph unicode="&#x22;" horiz-adv-x="528" d="M25 617h190l-16 -300h-158zM313 618h190l-16 -299h-158z" />
<glyph unicode="#" horiz-adv-x="724" d="M25 115l46 127h69l54 148h-78l46 127h79l36 100h127l-37 -100h127l36 100h127l-36 -100h78l-46 -127h-78l-54 -148h78l-46 -127h-78l-36 -99h-127l36 99h-127l-36 -99h-127l36 99h-69zM267 242h127l54 148h-127z" />
<glyph unicode="$" horiz-adv-x="438" d="M25 398q0 57 34.5 96t90.5 39h30v94h111v-94h87v-112h-228q-14 0 -14 -13q0 -24 14 -24h138q52 0 88.5 -36.5t36.5 -88.5q0 -56 -33.5 -94.5t-88.5 -39.5v-119h-111v119h-119v111h227q6 0 10 4.5t4 9.5q0 23 -14 23h-138q-52 0 -88.5 37t-36.5 88z" />
<glyph unicode="%" horiz-adv-x="936" d="M25 433q0 83 59 142t142 59h278q52 0 88 -29.5t36 -80.5q0 -36 -19 -69l-185 -331q-5 -10 -5 -13q8 -2 13 -2h77v90q0 83 59 142t142 59t142 -59t59 -142t-59.5 -142t-141.5 -59h-278q-52 0 -88.5 30t-36.5 80q0 35 20 70l185 331q4 8 5 12q-4 2 -13 2h-77v-90 q0 -83 -59 -142t-142 -59t-142 59t-59 142zM136 433q0 -37 26.5 -63.5t63.5 -26.5t63.5 26.5t26.5 63.5v90h-90q-38 0 -64 -26.5t-26 -63.5zM620 109h90q37 0 63.5 26.5t26.5 63.5t-26.5 63.5t-63.5 26.5q-38 0 -64 -26.5t-26 -63.5v-90z" />
<glyph unicode="&#x26;" horiz-adv-x="701" d="M25 190q0 69 30.5 119.5t92.5 73.5l-33 26q-1 0 -3.5 3.5t-2.5 4.5q-35 45 -35 94q0 57 41.5 89.5t99.5 32.5h333v-159h-258l73 -56q48 -39 48 -87q0 -44 -32.5 -69t-77.5 -25h-86q-13 0 -22 -9.5t-9 -22.5q0 -46 31 -46h222q13 0 22.5 9t9.5 22v63q0 59 42 101t100 42 h65v-159h-49v-47q0 -78 -55.5 -134t-134.5 -56h-222q-78 0 -134 56t-56 134z" />
<glyph unicode="'" horiz-adv-x="240" d="M25 617h190l-16 -300h-158z" />
<glyph unicode="(" horiz-adv-x="378" d="M25 316q0 138 95.5 237t232.5 100v-159q-72 0 -120.5 -52.5t-48.5 -125.5q0 -72 48.5 -124.5t120.5 -52.5v-159q-137 0 -232.5 99t-95.5 237z" />
<glyph unicode=")" horiz-adv-x="378" d="M25 -20v159q72 0 120.5 52.5t48.5 124.5q0 73 -48.5 125.5t-120.5 52.5v159q137 -1 232.5 -100t95.5 -237t-95.5 -237t-232.5 -99z" />
<glyph unicode="*" horiz-adv-x="701" d="M25 380q0 37 25 63.5t62 26.5q18 0 36 -8l131 -59l-16 143v9q0 37 25 62t62 25t62.5 -25t25.5 -62q0 -6 -1 -9l-15 -143l131 59q18 8 36 8q36 0 61.5 -26.5t25.5 -62.5q0 -31 -19.5 -54.5t-50.5 -30.5l-140 -29l96 -106q23 -25 23 -59q0 -36 -26.5 -62t-62.5 -26 q-49 0 -74 45l-72 124l-71 -125q-25 -44 -75 -44q-36 0 -62.5 26t-26.5 62q0 33 23 59l97 106l-141 29q-30 7 -49.5 30t-19.5 54z" />
<glyph unicode="+" horiz-adv-x="558" d="M25 237v159h174v174h159v-174h175v-159h-175v-174h-159v174h-174z" />
<glyph unicode="," horiz-adv-x="251" d="M25 86q0 42 29.5 71.5t71.5 29.5q48 0 74 -35.5t26 -85.5q0 -72 -37.5 -128.5t-104.5 -90.5l-16 22q67 61 67 95q0 16 -23 22q-39 10 -63 35.5t-24 64.5z" />
<glyph unicode="-" horiz-adv-x="410" d="M25 237v159h360v-159h-360z" />
<glyph unicode="." horiz-adv-x="252" d="M25 87q0 41 29.5 71t71.5 30t71.5 -30t29.5 -71q0 -42 -29.5 -71.5t-71.5 -29.5t-71.5 29.5t-29.5 71.5z" />
<glyph unicode="/" horiz-adv-x="441" d="M25 1l221 631h170l-223 -631h-168z" />
<glyph unicode="0" horiz-adv-x="701" d="M25 313q0 137 95 235.5t231 98.5t230.5 -98.5t94.5 -235.5q0 -136 -94.5 -235t-230.5 -99t-231 99t-95 235zM182 313q0 -71 49 -123.5t120 -52.5t119.5 52.5t48.5 123.5q0 72 -48.5 124.5t-119.5 52.5t-120 -52.5t-49 -124.5z" />
<glyph unicode="1" horiz-adv-x="532" d="M25 476v157h99q69 0 130 -47.5t85 -114.5l168 -471h-166l-150 418q-10 29 -24.5 43.5t-41.5 14.5h-100z" />
<glyph unicode="2" d="M25 0v253q0 68 59 105.5t131 37.5h222q13 0 22.5 9t9.5 22q0 47 -32 47h-372v159h372q79 0 134.5 -56t55.5 -135v-15q0 -78 -55.5 -134t-134.5 -56h-222q-19 0 -31 -5v-73h404v-159h-563z" />
<glyph unicode="3" horiz-adv-x="613" d="M25 474v159h372q79 0 135 -56t56 -135q0 -76 -36 -126q36 -50 36 -111v-15q0 -78 -56 -134t-135 -56h-356v159h356q13 0 22.5 9t9.5 22q0 47 -32 47h-158v159h158q13 0 22.5 9t9.5 22q0 47 -32 47h-372z" />
<glyph unicode="4" horiz-adv-x="689" d="M25 244q0 47 34 93l224 296h233v-354h148v-158h-148v-121h-158v121h-189q-59 0 -101.5 32.5t-42.5 90.5zM215 279h143v190z" />
<glyph unicode="5" d="M25 380v253h523v-159h-364v-79h253q79 0 134.5 -55.5t55.5 -134.5v-15q0 -78 -55.5 -134t-134.5 -56h-372v159h372q13 0 22.5 9t9.5 22q0 47 -32 47h-222q-72 0 -131 37.5t-59 105.5z" />
<glyph unicode="6" d="M25 190v252q0 79 56 135t134 56h333v-159h-333q-13 0 -22 -9.5t-9 -22.5v-46h253q79 0 134.5 -56t55.5 -135v-15q0 -78 -55.5 -134t-134.5 -56h-222q-78 0 -134 56t-56 134zM184 190q0 -13 9 -22t22 -9h222q13 0 22.5 9t9.5 22v15q0 13 -9.5 22.5t-22.5 9.5h-253v-47z " />
<glyph unicode="7" horiz-adv-x="536" d="M25 474v159h333q64 0 108.5 -39t44.5 -102q0 -34 -17 -73l-195 -419h-175l220 474h-319z" />
<glyph unicode="8" d="M25 190q0 76 36 126q-36 50 -36 111v15q0 79 56 135t134 56h222q79 0 134.5 -56t55.5 -135q0 -76 -36 -126q36 -50 36 -111v-15q0 -78 -55.5 -134t-134.5 -56h-222q-78 0 -134 56t-56 134zM184 190q0 -13 9 -22t22 -9h222q13 0 22.5 9t9.5 22v15q0 13 -9.5 22.5 t-22.5 9.5h-222q-13 0 -22 -9.5t-9 -22.5v-15zM184 427q0 -13 9 -22t22 -9h222q13 0 22.5 9t9.5 22v15q0 13 -9.5 22.5t-22.5 9.5h-222q-13 0 -22 -9.5t-9 -22.5v-15z" />
<glyph unicode="9" d="M25 427v15q0 79 56 135t134 56h222q79 0 134.5 -56t55.5 -135v-252q0 -78 -55.5 -134t-134.5 -56h-333v159h333q13 0 22.5 9t9.5 22v47h-254q-78 0 -134 56t-56 134zM184 427q0 -13 9 -22t22 -9h254v46q0 13 -9.5 22.5t-22.5 9.5h-222q-13 0 -22 -9.5t-9 -22.5v-15z" />
<glyph unicode=":" horiz-adv-x="252" d="M25 87q0 41 29.5 71t71.5 30t71.5 -30t29.5 -71q0 -42 -29.5 -71.5t-71.5 -29.5t-71.5 29.5t-29.5 71.5zM25 420q0 42 29.5 71.5t71.5 29.5t71.5 -29.5t29.5 -71.5t-29.5 -71.5t-71.5 -29.5t-71.5 29.5t-29.5 71.5z" />
<glyph unicode=";" horiz-adv-x="260" d="M25 420q0 42 29.5 71.5t71.5 29.5t71.5 -29.5t29.5 -71.5t-29.5 -71.5t-71.5 -29.5t-71.5 29.5t-29.5 71.5zM33 86q0 42 30 71.5t71 29.5q48 0 74.5 -35.5t26.5 -85.5q0 -72 -38 -128.5t-105 -90.5l-15 22q66 60 66 95q0 16 -23 22q-39 10 -63 35.5t-24 64.5z" />
<glyph unicode="&#x3c;" horiz-adv-x="534" d="M25 316q0 77 92 115l392 155v-170q-66 -26 -212 -67q-80 -24 -98 -31q23 -9 112 -33q149 -43 198 -61v-170l-390 149q-40 15 -67 44.5t-27 68.5z" />
<glyph unicode="=" horiz-adv-x="494" d="M25 130v159h444v-159h-444zM25 352v159h444v-159h-444z" />
<glyph unicode="&#x3e;" horiz-adv-x="534" d="M25 54v170q49 18 197 61q85 22 113 33q-14 5 -99 31q-142 40 -211 67v170l391 -155q93 -37 93 -115q0 -39 -27 -68.5t-67 -44.5z" />
<glyph unicode="?" horiz-adv-x="429" d="M25 482v158h227q64 0 108 -38t44 -101q0 -36 -18 -74l-93 -192h-176l120 247h-212zM104 101q0 42 29.5 71.5t71.5 29.5t71.5 -29.5t29.5 -71.5t-29.5 -71.5t-71.5 -29.5t-71.5 29.5t-29.5 71.5z" />
<glyph unicode="@" horiz-adv-x="671" d="M25 3v329q0 129 91 221.5t219 92.5q129 0 220 -92.5t91 -221.5q0 -93 -50 -170.5t-135 -116.5q-74 -34 -111 -50v131q-59 5 -99 50.5t-40 105.5q0 64 44.5 110.5t108.5 46.5h81q-45 48 -110 48q-63 0 -107 -45.5t-44 -109.5v-329h-159zM323 285q0 -19 13.5 -32t31.5 -13 q19 0 32 13t13 32q0 18 -13 31.5t-32 13.5q-18 0 -31.5 -13.5t-13.5 -31.5z" />
<glyph unicode="A" d="M25 0v332q0 131 88 223.5t213 92.5t213 -92.5t88 -223.5v-332h-158v143h-285v-143h-159zM184 301h285v31q0 65 -42 111.5t-101 46.5t-100.5 -46.5t-41.5 -111.5v-31z" />
<glyph unicode="B" d="M25 0v633h412q79 0 134.5 -56t55.5 -135q0 -76 -36 -126q36 -50 36 -111v-15q0 -78 -55.5 -134t-134.5 -56h-412zM184 159h253q13 0 22.5 9t9.5 22q0 47 -32 47h-158v159h158q13 0 22.5 9t9.5 22q0 47 -32 47h-253v-315z" />
<glyph unicode="C" horiz-adv-x="573" d="M25 316q0 131 88 224t213 93h222v-159h-222q-59 0 -100.5 -46.5t-41.5 -111.5t41.5 -111t100.5 -46h222v-159h-222q-124 0 -212.5 92.5t-88.5 223.5z" />
<glyph unicode="D" d="M25 0v633h301q125 0 213 -93t88 -224t-88.5 -223.5t-212.5 -92.5h-301zM184 159h142q59 0 101 46t42 111t-42 111.5t-101 46.5h-142v-315z" />
<glyph unicode="E" horiz-adv-x="613" d="M25 316q0 128 87 222.5t214 94.5h262v-159h-262q-39 0 -71.5 -21.5t-51.5 -56.5h266v-159h-266q18 -35 51 -56.5t72 -21.5h262v-159h-262q-127 0 -214 94t-87 222z" />
<glyph unicode="F" horiz-adv-x="573" d="M25 0v316q0 128 87 222.5t214 94.5h222v-159h-222q-61 0 -101.5 -48t-40.5 -110v-4h295v-159h-295v-153h-159z" />
<glyph unicode="G" d="M25 316q0 128 87 222.5t214 94.5h301v-159h-301q-61 0 -101.5 -48t-40.5 -110t40.5 -109.5t101.5 -47.5h143v78h-148v159h306v-396h-301q-127 0 -214 94t-87 222z" />
<glyph unicode="H" horiz-adv-x="614" d="M25 0v633h159v-237h246v237h159v-633h-159v237h-246v-237h-159z" />
<glyph unicode="I" horiz-adv-x="257" d="M49 0v633h159v-633h-159z" />
<glyph unicode="J" horiz-adv-x="517" d="M25 0v159h209q41 0 70.5 29.5t29.5 70.5v375h158v-375q0 -107 -75.5 -183t-182.5 -76h-209z" />
<glyph unicode="K" horiz-adv-x="621" d="M15 -1v632h159v-632h-159zM214 375l194 256h198l-210 -297q13 -39 41 -117q11 -30 25.5 -45t42.5 -15h101v-158h-101q-70 0 -131.5 48t-85.5 116z" />
<glyph unicode="L" horiz-adv-x="541" d="M25 190v443h159v-443q0 -13 9 -22t22 -9h301v-159h-301q-79 0 -134.5 55.5t-55.5 134.5z" />
<glyph unicode="M" horiz-adv-x="925" d="M25 0v391q0 107 75.5 183t182.5 76q104 0 179 -73q76 73 179 73q107 0 183 -76t76 -183v-391h-159v391q0 41 -29.5 70.5t-70.5 29.5t-70 -29.5t-29 -70.5v-391h-159v391q0 41 -29.5 70.5t-70.5 29.5t-70 -29.5t-29 -70.5v-391h-159z" />
<glyph unicode="N" horiz-adv-x="648" d="M25 0v334q0 128 86.5 221.5t212.5 93.5t212.5 -93.5t86.5 -221.5v-334h-157v334q0 62 -40.5 109.5t-101.5 47.5t-101.5 -47.5t-40.5 -109.5v-334h-157z" />
<glyph unicode="O" horiz-adv-x="701" d="M25 313q0 137 95 235.5t231 98.5t230.5 -98.5t94.5 -235.5q0 -136 -94.5 -235t-230.5 -99t-231 99t-95 235zM182 313q0 -71 49 -123.5t120 -52.5t119.5 52.5t48.5 123.5q0 72 -48.5 124.5t-119.5 52.5t-120 -52.5t-49 -124.5z" />
<glyph unicode="P" horiz-adv-x="638" d="M25 0v628h351q100 0 168.5 -73.5t68.5 -174.5t-68.5 -174t-168.5 -73h-194v-133h-157zM182 290h194q35 0 57.5 27.5t22.5 62.5t-23 63t-57 28h-194v-181z" />
<glyph unicode="Q" horiz-adv-x="701" d="M25 313q0 136 95 235t231 99t230.5 -99t94.5 -235q0 -114 -68.5 -205t-177.5 -119q-9 -103 -71.5 -165t-165.5 -62v157q37 0 55 16.5t23 53.5q-109 28 -177.5 119t-68.5 205zM182 313q0 -72 49 -124.5t120 -52.5t119.5 52.5t48.5 124.5q0 71 -48.5 123.5t-119.5 52.5 t-120 -52.5t-49 -123.5z" />
<glyph unicode="R" horiz-adv-x="631" d="M15 0v633h399q85 0 143.5 -62.5t58.5 -148.5q0 -78 -49.5 -138t-125.5 -70q23 -55 66 -55h100v-159h-100q-70 0 -132 48t-85 116l-73 206h197q19 0 31.5 16.5t12.5 35.5t-12.5 35.5t-31.5 16.5h-240v-474h-159z" />
<glyph unicode="S" d="M25 429v14q0 79 56 135t134 56h365v-159h-365q-13 0 -22 -9.5t-9 -22.5q0 -46 31 -46h222q79 0 134.5 -56t55.5 -135v-14q0 -79 -55.5 -135t-134.5 -56h-364v159h364q13 0 22.5 9.5t9.5 22.5q0 46 -32 46h-222q-78 0 -134 56t-56 135z" />
<glyph unicode="T" horiz-adv-x="491" d="M25 476v157h441v-157h-142v-476h-157v476h-142z" />
<glyph unicode="U" horiz-adv-x="648" d="M25 299v330h157v-330q0 -62 40.5 -109t101.5 -47t101.5 47t40.5 109v330h157v-330q0 -127 -86.5 -220.5t-212.5 -93.5t-212.5 93.5t-86.5 220.5z" />
<glyph unicode="V" horiz-adv-x="707" d="M25 632h171l161 -408l156 408h169l-209 -551q-16 -41 -45 -67.5t-69 -26.5q-78 0 -115 92z" />
<glyph unicode="W" horiz-adv-x="925" d="M25 242v392h159v-392q0 -41 29 -70.5t70 -29.5t70.5 29.5t29.5 70.5v392h159v-392q0 -41 29 -70.5t70 -29.5t70.5 29.5t29.5 70.5v392h159v-392q0 -107 -76 -182.5t-183 -75.5q-104 0 -179 72q-75 -72 -179 -72q-107 0 -182.5 76t-75.5 182z" />
<glyph unicode="X" horiz-adv-x="631" d="M25 0v159q71 0 130 44t59 113t-59 113.5t-130 44.5v158q86 0 163.5 -37.5t127.5 -105.5q49 68 126.5 105.5t163.5 37.5v-158q-70 0 -129 -44.5t-59 -113.5t58.5 -113t129.5 -44v-159q-86 0 -163.5 37.5t-126.5 105.5q-50 -68 -127.5 -105.5t-163.5 -37.5z" />
<glyph unicode="Y" horiz-adv-x="642" d="M19 634h173l109 -253q47 83 135 253h181l-137 -258q-12 -21 -33 -61.5t-39 -73t-35 -60.5l-24 -43q-33 -59 -100 -98.5t-134 -39.5h-90v159h90q22 0 48 14t41 33z" />
<glyph unicode="Z" horiz-adv-x="627" d="M25 115q0 56 56 105l294 254h-345v159h421q61 0 106 -28.5t45 -86.5q0 -57 -56 -106l-294 -253h345v-159h-420q-61 0 -106.5 28.5t-45.5 86.5z" />
<glyph unicode="[" horiz-adv-x="294" d="M25 0v633h244v-159h-85v-315h85v-159h-244z" />
<glyph unicode="\" horiz-adv-x="441" d="M25 632h170l221 -631h-168z" />
<glyph unicode="]" horiz-adv-x="294" d="M25 0v159h86v315h-86v159h244v-633h-244z" />
<glyph unicode="^" horiz-adv-x="534" d="M1 78l155 392q38 92 115 92q39 0 68.5 -27t44.5 -67l149 -390h-170q-23 62 -60 198q-31 104 -34 112q-7 -18 -31 -98q-41 -146 -67 -212h-170z" />
<glyph unicode="_" horiz-adv-x="505" d="M25 -294h540v-159h-540v159z" />
<glyph unicode="`" horiz-adv-x="227" d="M25 608h103l74 -66h-70z" />
<glyph unicode="a" horiz-adv-x="728" d="M25 190v15q0 79 56 135t134 56h182q-8 25 -14.5 39t-22.5 26.5t-38 12.5h-243v159h243q70 0 131.5 -48.5t85.5 -116.5l164 -468h-168l-83 237h-237q-13 0 -22 -9.5t-9 -22.5q0 -46 31 -46h222v-159h-222q-78 0 -134 56t-56 134z" />
<glyph unicode="b" d="M25 0v633h412q79 0 134.5 -56t55.5 -135q0 -76 -36 -126q36 -50 36 -111v-15q0 -78 -55.5 -134t-134.5 -56h-412zM184 159h253q13 0 22.5 9t9.5 22q0 47 -32 47h-158v159h158q13 0 22.5 9t9.5 22q0 47 -32 47h-253v-315z" />
<glyph unicode="c" horiz-adv-x="573" d="M16 316q0 131 88 224t213 93h222v-159h-222q-59 0 -100.5 -46.5t-41.5 -111.5t41.5 -111t100.5 -46h222v-159h-222q-124 0 -212.5 92.5t-88.5 223.5z" />
<glyph unicode="d" d="M25 0v633h301q125 0 213 -93t88 -224t-88.5 -223.5t-212.5 -92.5h-301zM184 159h142q59 0 101 46t42 111t-42 111.5t-101 46.5h-142v-315z" />
<glyph unicode="e" horiz-adv-x="680" d="M25 318q0 130 90.5 224t219.5 94h136q76 0 130 -54t54 -130v-29q0 -76 -54 -130.5t-130 -54.5h-210v159h210q11 0 18.5 7.5t7.5 18.5v9v10.5t-0.5 10t-2.5 10t-4.5 7.5t-7.5 6t-11 2h-136q-64 0 -107.5 -47.5t-43.5 -112.5q0 -64 44 -111.5t107 -47.5h299v-159h-299 q-129 0 -219.5 94t-90.5 224z" />
<glyph unicode="f" horiz-adv-x="649" d="M25 0v159h101q15 0 37 17.5t31 41.5l94 252q26 70 90.5 116.5t135.5 46.5h110v-159h-110q-20 0 -44.5 -18t-33.5 -41l-15 -42h88v-158h-147l-20 -52q-25 -70 -87 -116.5t-129 -46.5h-101z" />
<glyph unicode="g" d="M25 316q0 128 87 222.5t214 94.5h301v-159h-301q-61 0 -101.5 -48t-40.5 -110t40.5 -109.5t101.5 -47.5h143v78h-148v159h306v-396h-301q-127 0 -214 94t-87 222z" />
<glyph unicode="h" horiz-adv-x="614" d="M25 0v633h159v-237h246v237h159v-633h-159v237h-246v-237h-159z" />
<glyph unicode="i" horiz-adv-x="228" d="M13 557q0 42 29.5 71.5t71.5 29.5t71.5 -29.5t29.5 -71.5t-29.5 -71.5t-71.5 -29.5t-71.5 29.5t-29.5 71.5zM35 1v420h158v-420h-158z" />
<glyph unicode="j" horiz-adv-x="528" d="M25 0v157h99q28 0 42.5 14.5t24.5 43.5l146 418h166l-164 -471q-23 -67 -84 -114.5t-131 -47.5h-99z" />
<glyph unicode="k" horiz-adv-x="633" d="M25 0v633h159v-219q33 32 71.5 69.5t82 80t71.5 69.5h199l-197 -196q-83 -83 -99 -100q-4 -20 -4 -30q0 -41 32 -71.5t81 -46t94 -23t83 -7.5v-159h-17q-57 -1 -123 15t-128 47t-103.5 83t-42.5 115v-260h-159z" />
<glyph unicode="l" horiz-adv-x="528" d="M25 633h166l145 -418q11 -29 25.5 -43.5t41.5 -14.5h100v-157h-100q-69 0 -130 47.5t-84 114.5z" />
<glyph unicode="m" horiz-adv-x="925" d="M25 0v391q0 107 75.5 183t182.5 76q104 0 179 -73q76 73 179 73q107 0 183 -76t76 -183v-391h-159v391q0 41 -29.5 70.5t-70.5 29.5t-70 -29.5t-29 -70.5v-391h-159v391q0 41 -29.5 70.5t-70.5 29.5t-70 -29.5t-29 -70.5v-391h-159z" />
<glyph unicode="n" horiz-adv-x="648" d="M25 0v334q0 128 86.5 221.5t212.5 93.5t212.5 -93.5t86.5 -221.5v-334h-157v334q0 62 -40.5 109.5t-101.5 47.5t-101.5 -47.5t-40.5 -109.5v-334h-157z" />
<glyph unicode="o" horiz-adv-x="701" d="M25 313q0 137 95 235.5t231 98.5t230.5 -98.5t94.5 -235.5q0 -136 -94.5 -235t-230.5 -99t-231 99t-95 235zM182 313q0 -71 49 -123.5t120 -52.5t119.5 52.5t48.5 123.5q0 72 -48.5 124.5t-119.5 52.5t-120 -52.5t-49 -124.5z" />
<glyph unicode="p" horiz-adv-x="638" d="M25 0v628h351q100 0 168.5 -73.5t68.5 -174.5t-68.5 -174t-168.5 -73h-194v-133h-157zM182 290h194q35 0 57.5 27.5t22.5 62.5t-23 63t-57 28h-194v-181z" />
<glyph unicode="q" horiz-adv-x="701" d="M25 313q0 136 95 235t231 99t230.5 -99t94.5 -235q0 -114 -68.5 -205t-177.5 -119q-9 -103 -71.5 -165t-165.5 -62v157q37 0 55 16.5t23 53.5q-109 28 -177.5 119t-68.5 205zM182 313q0 -72 49 -124.5t120 -52.5t119.5 52.5t48.5 124.5q0 71 -48.5 123.5t-119.5 52.5 t-120 -52.5t-49 -123.5z" />
<glyph unicode="r" horiz-adv-x="528" d="M25 0l164 471q23 67 84 114.5t130 47.5h100v-157h-100q-27 0 -41.5 -14.5t-25.5 -43.5l-145 -418h-166z" />
<glyph unicode="s" horiz-adv-x="645" d="M25 0v157h100q18 0 39 20t28 39l94 251q25 68 89 114.5t135 46.5h110v-157h-110q-22 0 -45.5 -19t-31.5 -40l-93 -251q-25 -66 -86 -113.5t-129 -47.5h-100z" />
<glyph unicode="t" horiz-adv-x="528" d="M25 633h166l33 -94h168v-159h-113l57 -165q11 -29 25.5 -43.5t41.5 -14.5h100v-157h-100q-69 0 -130 47.5t-84 114.5z" />
<glyph unicode="u" horiz-adv-x="648" d="M25 299v330h157v-330q0 -62 40.5 -109t101.5 -47t101.5 47t40.5 109v330h157v-330q0 -127 -86.5 -220.5t-212.5 -93.5t-212.5 93.5t-86.5 220.5z" />
<glyph unicode="v" horiz-adv-x="707" d="M25 634h171l161 -408l156 408h169l-209 -551q-16 -41 -45 -67.5t-69 -26.5q-78 0 -115 92z" />
<glyph unicode="w" horiz-adv-x="925" d="M25 242v392h159v-392q0 -41 29 -70.5t70 -29.5t70.5 29.5t29.5 70.5v392h159v-392q0 -41 29 -70.5t70 -29.5t70.5 29.5t29.5 70.5v392h159v-392q0 -107 -76 -182.5t-183 -75.5q-104 0 -179 72q-75 -72 -179 -72q-107 0 -182.5 76t-75.5 182z" />
<glyph unicode="x" horiz-adv-x="631" d="M25 0v159q71 0 130 44t59 113t-59 113.5t-130 44.5v158q86 0 163.5 -37.5t127.5 -105.5q49 68 126.5 105.5t163.5 37.5v-158q-70 0 -129 -44.5t-59 -113.5t58.5 -113t129.5 -44v-159q-86 0 -163.5 37.5t-126.5 105.5q-50 -68 -127.5 -105.5t-163.5 -37.5z" />
<glyph unicode="y" horiz-adv-x="642" d="M19 633h173l109 -252l135 252h181l-137 -257q-12 -21 -33 -61.5t-39 -73t-35 -60.5l-24 -43q-33 -59 -100 -98.5t-134 -39.5h-90v159h90q22 0 48 14t41 33z" />
<glyph unicode="z" horiz-adv-x="627" d="M25 115q0 56 56 105l294 254h-345v159h421q61 0 106 -28.5t45 -86.5q0 -57 -56 -106l-294 -253h345v-159h-420q-61 0 -106.5 28.5t-45.5 86.5z" />
<glyph unicode="{" horiz-adv-x="386" d="M25 246v148h49q11 0 18.5 9.5t7.5 19.5v90q0 51 37 87t88 36h136v-158h-102v-315h102v-159h-136q-51 0 -88 36t-37 87v91q0 10 -7.5 19t-18.5 9h-49z" />
<glyph unicode="|" horiz-adv-x="209" d="M25 -40v713h159v-713h-159z" />
<glyph unicode="}" horiz-adv-x="386" d="M25 4v159h102v315h-102v158h136q51 0 88 -36t37 -87v-90q0 -10 7.5 -19.5t18.5 -9.5h49v-148h-49q-11 0 -18.5 -9t-7.5 -19v-91q0 -51 -37 -87t-88 -36h-136z" />
<glyph unicode="~" horiz-adv-x="394" d="M25 311q38 92 106 92q31 0 76 -33q46 -32 56 -32q26 0 46 38l60 -40q-42 -86 -105 -86q-30 0 -75 31q-43 32 -58 32q-20 0 -43 -38z" />
<glyph unicode="&#xa1;" horiz-adv-x="252" d="M25 516q0 41 29.5 71t71.5 30t71.5 -30t29.5 -71q0 -42 -29.5 -72t-71.5 -30t-71.5 30t-29.5 72zM26 -23l16 395h158l16 -395h-190z" />
<glyph unicode="&#xa2;" horiz-adv-x="374" d="M25 335q0 69 41.5 124t107.5 70v98h111v-93h64v-111h-134q-34 0 -56.5 -27t-22.5 -61t22.5 -61t56.5 -27h134v-111h-64v-130h-111v135q-66 15 -107.5 70t-41.5 124z" />
<glyph unicode="&#xa3;" horiz-adv-x="649" d="M25 0v159h101q15 0 37 17.5t31 41.5l94 252q26 70 90.5 116.5t135.5 46.5h110v-159h-110q-20 0 -44.5 -18t-33.5 -41l-15 -42h88v-158h-147l-20 -52l-1 -4h241v-159h-557z" />
<glyph unicode="&#xa5;" d="M25 553v80h159v-80q0 -62 40.5 -109.5t101.5 -47.5q62 0 102.5 47.5t40.5 109.5v80h158v-80q0 -101 -57 -184.5t-151 -115.5h109v-80h-123v-37h123v-80h-123v-54h-158v54h-123v80h123v37h-123v80h109q-94 32 -151 115.5t-57 184.5z" />
<glyph unicode="&#xa6;" horiz-adv-x="209" d="M22 384v280h159v-280h-159zM28 -40v280h159v-280h-159z" />
<glyph unicode="&#xa7;" horiz-adv-x="913" d="M25 0v157h100q18 0 39 20t28 39l94 251q25 68 89 114.5t135 46.5h110v-65q72 65 158 65h110v-157h-110q-22 0 -45.5 -19t-31.5 -40l-93 -251q-25 -66 -86 -113.5t-129 -47.5h-100v84q-74 -84 -168 -84h-100zM338 157h55q18 0 39 20t28 39l94 251l1 4h-45q-22 0 -45.5 -19 t-31.5 -40l-93 -251z" />
<glyph unicode="&#xa8;" horiz-adv-x="233" d="M25 584q0 16 11 27t27 11t27 -11t11 -27t-11 -27t-27 -11t-27 11t-11 27zM132 585q0 16 11 27t27 11t27 -11t11 -27t-11 -27t-27 -11t-27 11t-11 27z" />
<glyph unicode="&#xa9;" horiz-adv-x="724" d="M25 327q0 139 98.5 238t238.5 99t238.5 -99t98.5 -238t-99 -238t-238 -99q-140 0 -238.5 99t-98.5 238zM104 327q0 -106 75.5 -181.5t182.5 -75.5t182.5 75.5t75.5 181.5q0 107 -76 182.5t-182 75.5t-182 -75.5t-76 -182.5zM211 327q0 64 43.5 111t107.5 47h111v-79h-111 q-30 0 -50.5 -24t-20.5 -55t20.5 -55t50.5 -24h111v-79h-111q-64 0 -107.5 47t-43.5 111z" />
<glyph unicode="&#xaa;" horiz-adv-x="389" d="M25 393v8q0 39 28 67t67 28h91q-5 14 -7.5 20t-10.5 12.5t-19 6.5h-148v79h148q35 0 65.5 -24t42.5 -58l82 -234h-84l-41 119h-119q-6 0 -11 -5t-5 -11q0 -24 16 -24h111v-79h-111q-39 0 -67 28t-28 67z" />
<glyph unicode="&#xab;" horiz-adv-x="542" d="M25 316q0 72 15 128l52 189h165l-64 -231q-9 -30 -9 -86q0 -55 9 -85l64 -231h-165l-52 188q-15 56 -15 128zM285 316q0 72 15 128l52 189h165l-64 -231q-9 -30 -9 -86q0 -55 9 -85l64 -231h-165l-52 188q-15 56 -15 128z" />
<glyph unicode="&#xac;" horiz-adv-x="563" d="M25 239v158h322q79 0 135 -55.5t56 -134.5v-141h-159v141q0 13 -9.5 22.5t-22.5 9.5h-322z" />
<glyph unicode="&#xad;" horiz-adv-x="410" d="M25 237v159h360v-159h-360z" />
<glyph unicode="&#xae;" horiz-adv-x="274" d="M25 520q0 47 33 80t79 33t79 -33t33 -80q0 -46 -33 -79t-79 -33t-79 33t-33 79zM41 520q0 -40 28 -68t68 -28t68.5 28t28.5 68t-28.5 68.5t-68.5 28.5t-68 -28.5t-28 -68.5zM86 464v111h74q13 0 22 -9t9 -21q0 -16 -9 -24t-17.5 -9t-25.5 -1h-6q9 -32 62 -32v-16 q-59 0 -78 48h-15v-47h-16zM102 527h58q6 0 10.5 4.5t4.5 10.5q0 17 -15 17h-58v-32z" />
<glyph unicode="&#xaf;" horiz-adv-x="410" d="M64 624v54h269v-54h-269z" />
<glyph unicode="&#xb0;" horiz-adv-x="224" d="M25 578q0 35 25.5 60.5t61.5 25.5t61.5 -25.5t25.5 -60.5q0 -36 -25.5 -61.5t-61.5 -25.5t-61.5 25.5t-25.5 61.5zM73 578q0 -17 11.5 -28.5t27.5 -11.5t27.5 12t11.5 28t-11.5 27.5t-27.5 11.5t-27.5 -11.5t-11.5 -27.5z" />
<glyph unicode="&#xb1;" horiz-adv-x="701" d="M25 380q0 37 25 63.5t62 26.5q18 0 36 -8l131 -59l-16 143v9q0 37 25 62t62 25t62.5 -25t25.5 -62q0 -6 -1 -9l-15 -143l131 59q18 8 36 8q36 0 61.5 -26.5t25.5 -62.5q0 -31 -19.5 -54.5t-50.5 -30.5l-140 -29l96 -106q23 -25 23 -59q0 -36 -26.5 -62t-62.5 -26 q-49 0 -74 45l-72 124l-71 -125q-25 -44 -75 -44q-36 0 -62.5 26t-26.5 62q0 33 23 59l97 106l-141 29q-30 7 -49.5 30t-19.5 54z" />
<glyph unicode="&#xb2;" horiz-adv-x="351" d="M25 313v127q0 34 29.5 52.5t65.5 18.5h111q16 0 16 16q0 23 -16 23h-186v79h186q39 0 67 -27.5t28 -67.5v-7q0 -40 -28 -67.5t-67 -27.5h-111q-8 0 -16 -3v-37h202v-79h-281z" />
<glyph unicode="&#xb3;" horiz-adv-x="331" d="M25 550v79h186q40 0 67.5 -27.5t27.5 -67.5q0 -39 -18 -63q18 -24 18 -55v-8q0 -39 -27.5 -67t-67.5 -28h-178v79h178q7 0 11.5 5t4.5 11q0 24 -16 24h-79v79h79q16 0 16 16q0 23 -16 23h-186z" />
<glyph unicode="&#xb4;" horiz-adv-x="227" d="M25 542l74 66h103l-107 -66h-70z" />
<glyph unicode="&#xb5;" horiz-adv-x="701" d="M25 380q0 37 25 63.5t62 26.5q18 0 36 -8l131 -59l-16 143v9q0 37 25 62t62 25t62.5 -25t25.5 -62q0 -6 -1 -9l-15 -143l131 59q18 8 36 8q36 0 61.5 -26.5t25.5 -62.5q0 -31 -19.5 -54.5t-50.5 -30.5l-140 -29l96 -106q23 -25 23 -59q0 -36 -26.5 -62t-62.5 -26 q-49 0 -74 45l-72 124l-71 -125q-25 -44 -75 -44q-36 0 -62.5 26t-26.5 62q0 33 23 59l97 106l-141 29q-30 7 -49.5 30t-19.5 54z" />
<glyph unicode="&#xb6;" horiz-adv-x="484" d="M25 383q0 101 69.5 175.5t169.5 74.5h195v-633h-159v133h-36q-100 0 -169.5 74.5t-69.5 175.5zM184 383q0 -35 23 -63t57 -28h36v182h-36q-34 0 -57 -28t-23 -63z" />
<glyph unicode="&#xb7;" horiz-adv-x="252" d="M25 305q0 42 29.5 71.5t71.5 29.5t71.5 -29.5t29.5 -71.5t-29.5 -71.5t-71.5 -29.5t-71.5 29.5t-29.5 71.5z" />
<glyph unicode="&#xb8;" horiz-adv-x="236" d="M25 -233l20 48h74q19 0 31.5 15t12.5 34q0 14 -5 24t-10.5 15t-19 7.5t-19.5 3t-23 0t-20 -0.5l40 98h51l-21 -52q33 -7 54 -34t21 -61q0 -39 -26.5 -68t-65.5 -29h-94z" />
<glyph unicode="&#xb9;" horiz-adv-x="291" d="M25 551v79h50q34 0 64.5 -24t42.5 -57l84 -236h-83l-75 209q-10 29 -33 29h-50z" />
<glyph unicode="&#xba;" horiz-adv-x="376" d="M25 453q0 69 47.5 118t115.5 49t115.5 -49t47.5 -118q0 -68 -47.5 -117.5t-115.5 -49.5t-115.5 49.5t-47.5 117.5zM104 453q0 -36 24.5 -62t59.5 -26t59.5 26t24.5 62t-24.5 62t-59.5 26t-59.5 -26t-24.5 -62z" />
<glyph unicode="&#xbb;" horiz-adv-x="542" d="M25 0l64 231q9 30 9 85q0 56 -9 86l-64 231h165l52 -189q15 -56 15 -128t-15 -128l-52 -188h-165zM285 0l64 231q9 30 9 85q0 56 -9 86l-64 231h165l52 -189q15 -56 15 -128t-15 -128l-52 -188h-165z" />
<glyph unicode="&#xbc;" horiz-adv-x="722" d="M25 493v78h50q34 0 64.5 -24t42.5 -57l84 -235h-83l-75 208q-10 30 -33 30h-50zM115 0l385 577h85l-386 -577h-84zM377 122q0 24 18 47l111 147h117v-176h74v-80h-74v-60h-79v60h-95q-29 0 -50.5 16.5t-21.5 45.5zM472 140h72v94z" />
<glyph unicode="&#xbd;" horiz-adv-x="760" d="M25 493v78h50q34 0 64.5 -24t42.5 -57l84 -235h-83l-75 208q-10 30 -33 30h-50zM115 0l385 577h85l-386 -577h-84zM434 0v126q0 34 29.5 53t65.5 19h111q6 0 11 4.5t5 11.5q0 23 -16 23h-186v79h186q39 0 67 -27.5t28 -67.5v-7q0 -40 -28 -68t-67 -28h-111q-11 0 -16 -2 v-37h202v-79h-281z" />
<glyph unicode="&#xbe;" horiz-adv-x="757" d="M25 497v79h186q40 0 67.5 -27.5t27.5 -67.5q0 -39 -18 -63q18 -24 18 -55v-8q0 -39 -27.5 -67t-67.5 -28h-178v79h178q7 0 11.5 5t4.5 11q0 23 -16 23h-79v80h79q16 0 16 16q0 23 -16 23h-186zM150 0l385 577h85l-386 -577h-84zM412 122q0 24 18 47l111 147h117v-176h74 v-80h-74v-60h-79v60h-95q-29 0 -50.5 16.5t-21.5 45.5zM507 140h72v94z" />
<glyph unicode="&#xbf;" horiz-adv-x="429" d="M25 139q0 37 18 75l93 192h177l-120 -247h211v-159h-227q-64 0 -108 38t-44 101zM123 539q0 42 30 71.5t72 29.5q41 0 71 -29.5t30 -71.5q0 -41 -30 -71t-71 -30q-42 0 -72 30t-30 71z" />
<glyph unicode="&#xc0;" d="M25 0v332q0 131 88 223.5t213 92.5t213 -92.5t88 -223.5v-332h-158v143h-285v-143h-159zM184 301h285v31q0 65 -42 111.5t-101 46.5t-100.5 -46.5t-41.5 -111.5v-31zM205 747h103l74 -66h-70z" />
<glyph unicode="&#xc1;" d="M25 0v332q0 131 88 223.5t213 92.5t213 -92.5t88 -223.5v-332h-158v143h-285v-143h-159zM184 301h285v31q0 65 -42 111.5t-101 46.5t-100.5 -46.5t-41.5 -111.5v-31zM274 679l74 66h103l-107 -66h-70z" />
<glyph unicode="&#xc2;" d="M25 0v332q0 131 88 223.5t213 92.5t213 -92.5t88 -223.5v-332h-158v143h-285v-143h-159zM184 301h285v31q0 65 -42 111.5t-101 46.5t-100.5 -46.5t-41.5 -111.5v-31zM234 675l49 57q12 13 37 13q26 0 36 -14l48 -56h-54q-6 7 -15.5 23t-14.5 22q-6 -7 -16 -22.5 t-16 -22.5h-54z" />
<glyph unicode="&#xc3;" d="M25 0v332q0 131 88 223.5t213 92.5t213 -92.5t88 -223.5v-332h-158v143h-285v-143h-159zM184 301h285v31q0 65 -42 111.5t-101 46.5t-100.5 -46.5t-41.5 -111.5v-31zM251 705q17 41 47 41q14 0 34 -14q19 -15 25 -15q11 0 20 17l27 -18q-20 -38 -47 -38q-13 0 -33 14 t-26 14q-8 0 -19 -17z" />
<glyph unicode="&#xc4;" d="M25 0v332q0 131 88 223.5t213 92.5t213 -92.5t88 -223.5v-332h-158v143h-285v-143h-159zM184 301h285v31q0 65 -42 111.5t-101 46.5t-100.5 -46.5t-41.5 -111.5v-31zM235 707q0 16 11 27t27 11t27 -11t11 -27t-11 -27t-27 -11t-27 11t-11 27zM342 708q0 16 11 27t27 11 t27 -11t11 -27t-11 -27t-27 -11t-27 11t-11 27z" />
<glyph unicode="&#xc5;" d="M25 0v332q0 115 70 203t176 108q-9 15 -9 35q0 28 20.5 48.5t49.5 20.5q28 0 48.5 -20.5t20.5 -48.5q0 -21 -11 -38q102 -24 169.5 -110t67.5 -198v-332h-158v143h-285v-143h-159zM184 301h285v31q0 65 -42 111.5t-101 46.5t-100.5 -46.5t-41.5 -111.5v-31zM300 678 q0 -23 21 -30h5q10 0 15 -1q22 7 22 31q0 13 -9 22t-22 9t-22.5 -9t-9.5 -22z" />
<glyph unicode="&#xc6;" horiz-adv-x="1060" d="M25 0v332q0 131 88 223.5t213 92.5q68 0 128.5 -30t102.5 -83q90 98 217 98h261v-159h-261q-38 0 -71 -21.5t-52 -56.5h266v-159h-266q19 -36 52 -57t71 -21h261v-159h-261q-77 0 -147 40v-40h-158v143h-285v-143h-159zM184 301h285v31q0 65 -42 111.5t-101 46.5 t-100.5 -46.5t-41.5 -111.5v-31z" />
<glyph unicode="&#xc7;" horiz-adv-x="573" d="M25 316q0 131 88 224t213 93h222v-159h-222q-59 0 -100.5 -46.5t-41.5 -111.5t41.5 -111t100.5 -46h222v-159h-167l-20 -48q33 -7 54 -34t21 -61q0 -39 -27 -68t-65 -29h-94l20 48h74q19 0 31.5 15t12.5 34q0 14 -5 24t-10.5 15t-19 7.5t-19.5 3t-23 0t-20 -0.5l38 94h-3 q-124 0 -212.5 92.5t-88.5 223.5z" />
<glyph unicode="&#xc8;" horiz-adv-x="613" d="M25 316q0 128 87 222.5t214 94.5h262v-159h-262q-39 0 -71.5 -21.5t-51.5 -56.5h266v-159h-266q18 -35 51 -56.5t72 -21.5h262v-159h-262q-127 0 -214 94t-87 222zM325 740h103l74 -66h-70z" />
<glyph unicode="&#xc9;" horiz-adv-x="613" d="M25 316q0 128 87 222.5t214 94.5h262v-159h-262q-39 0 -71.5 -21.5t-51.5 -56.5h266v-159h-266q18 -35 51 -56.5t72 -21.5h262v-159h-262q-127 0 -214 94t-87 222zM305 679l74 66h103l-107 -66h-70z" />
<glyph unicode="&#xca;" horiz-adv-x="613" d="M25 316q0 128 87 222.5t214 94.5h262v-159h-262q-39 0 -71.5 -21.5t-51.5 -56.5h266v-159h-266q18 -35 51 -56.5t72 -21.5h262v-159h-262q-127 0 -214 94t-87 222zM280 673l49 57q12 13 37 13q26 0 36 -14l48 -56h-54q-6 7 -15.5 23t-14.5 22q-6 -7 -16 -22.5t-16 -22.5 h-54z" />
<glyph unicode="&#xcb;" horiz-adv-x="613" d="M25 316q0 128 87 222.5t214 94.5h262v-159h-262q-39 0 -71.5 -21.5t-51.5 -56.5h266v-159h-266q18 -35 51 -56.5t72 -21.5h262v-159h-262q-127 0 -214 94t-87 222zM296 705q0 16 11 27t27 11t27 -11t11 -27t-11 -27t-27 -11t-27 11t-11 27zM403 706q0 16 11 27t27 11 t27 -11t11 -27t-11 -27t-27 -11t-27 11t-11 27z" />
<glyph unicode="&#xcc;" horiz-adv-x="257" d="M36 744h103l74 -66h-70zM49 0v633h159v-633h-159z" />
<glyph unicode="&#xcd;" horiz-adv-x="257" d="M49 0v633h159v-633h-159zM55 678l74 66h103l-107 -66h-70z" />
<glyph unicode="&#xce;" horiz-adv-x="257" d="M44 676l49 57q12 13 37 13q26 0 36 -14l48 -56h-54q-6 7 -15.5 23t-14.5 22q-6 -7 -16 -22.5t-16 -22.5h-54zM49 0v633h159v-633h-159z" />
<glyph unicode="&#xcf;" horiz-adv-x="257" d="M40 709q0 16 11 27t27 11t27 -11t11 -27t-11 -27t-27 -11t-27 11t-11 27zM49 0v633h159v-633h-159zM147 710q0 16 11 27t27 11t27 -11t11 -27t-11 -27t-27 -11t-27 11t-11 27z" />
<glyph unicode="&#xd0;" horiz-adv-x="645" d="M25 239v159h38v235h256q125 0 213 -93t88 -224t-88.5 -223.5t-212.5 -92.5h-256v239h-38zM221 159h98q59 0 100.5 46t41.5 111t-41.5 111.5t-100.5 46.5h-98v-76h119v-159h-119v-80z" />
<glyph unicode="&#xd1;" horiz-adv-x="648" d="M25 0v334q0 128 86.5 221.5t212.5 93.5t212.5 -93.5t86.5 -221.5v-334h-157v334q0 62 -40.5 109.5t-101.5 47.5t-101.5 -47.5t-40.5 -109.5v-334h-157zM241 702q17 41 47 41q14 0 34 -14q20 -15 25 -15q11 0 20 17l27 -18q-20 -38 -47 -38q-13 0 -33 14t-26 14 q-8 0 -19 -17z" />
<glyph unicode="&#xd2;" horiz-adv-x="701" d="M25 313q0 137 95 235.5t231 98.5t230.5 -98.5t94.5 -235.5q0 -136 -94.5 -235t-230.5 -99t-231 99t-95 235zM182 313q0 -71 49 -123.5t120 -52.5t119.5 52.5t48.5 123.5q0 72 -48.5 124.5t-119.5 52.5t-120 -52.5t-49 -124.5zM237 748h103l74 -66h-70z" />
<glyph unicode="&#xd3;" horiz-adv-x="701" d="M25 313q0 137 95 235.5t231 98.5t230.5 -98.5t94.5 -235.5q0 -136 -94.5 -235t-230.5 -99t-231 99t-95 235zM182 313q0 -71 49 -123.5t120 -52.5t119.5 52.5t48.5 123.5q0 72 -48.5 124.5t-119.5 52.5t-120 -52.5t-49 -124.5zM288 680l74 66h103l-107 -66h-70z" />
<glyph unicode="&#xd4;" horiz-adv-x="701" d="M25 313q0 137 95 235.5t231 98.5t230.5 -98.5t94.5 -235.5q0 -136 -94.5 -235t-230.5 -99t-231 99t-95 235zM182 313q0 -71 49 -123.5t120 -52.5t119.5 52.5t48.5 123.5q0 72 -48.5 124.5t-119.5 52.5t-120 -52.5t-49 -124.5zM262 676l49 57q12 13 37 13q26 0 36 -14 l48 -56h-54q-6 7 -15.5 23t-14.5 22q-6 -7 -16 -22.5t-16 -22.5h-54z" />
<glyph unicode="&#xd5;" horiz-adv-x="701" d="M25 313q0 137 95 235.5t231 98.5t230.5 -98.5t94.5 -235.5q0 -136 -94.5 -235t-230.5 -99t-231 99t-95 235zM182 313q0 -71 49 -123.5t120 -52.5t119.5 52.5t48.5 123.5q0 72 -48.5 124.5t-119.5 52.5t-120 -52.5t-49 -124.5zM261 704q17 41 47 41q14 0 34 -14 q20 -15 25 -15q11 0 20 17l27 -18q-20 -38 -47 -38q-13 0 -33 14t-26 14q-8 0 -19 -17z" />
<glyph unicode="&#xd6;" horiz-adv-x="701" d="M25 313q0 137 95 235.5t231 98.5t230.5 -98.5t94.5 -235.5q0 -136 -94.5 -235t-230.5 -99t-231 99t-95 235zM182 313q0 -71 49 -123.5t120 -52.5t119.5 52.5t48.5 123.5q0 72 -48.5 124.5t-119.5 52.5t-120 -52.5t-49 -124.5zM255 707q0 16 11 27t27 11t27 -11t11 -27 t-11 -27t-27 -11t-27 11t-11 27zM362 708q0 16 11 27t27 11t27 -11t11 -27t-11 -27t-27 -11t-27 11t-11 27z" />
<glyph unicode="&#xd7;" horiz-adv-x="558" d="M43 193l124 123l-124 124l112 112l124 -124l123 124l112 -112l-123 -124l123 -123l-112 -112l-123 123l-124 -123z" />
<glyph unicode="&#xd8;" horiz-adv-x="701" d="M25 313q0 137 95 235.5t231 98.5q50 0 97 -15h100l-15 -42q66 -46 104.5 -119.5t38.5 -157.5q0 -136 -94.5 -235t-230.5 -99q-59 0 -116 22h-78l12 35q-66 46 -105 119.5t-39 157.5zM182 313q0 -68 43 -117l103 292q-63 -9 -104.5 -59.5t-41.5 -115.5zM374 139 q63 9 104 59t41 115t-42 117z" />
<glyph unicode="&#xd9;" horiz-adv-x="648" d="M25 299v330h157v-330q0 -62 40.5 -109t101.5 -47t101.5 47t40.5 109v330h157v-330q0 -127 -86.5 -220.5t-212.5 -93.5t-212.5 93.5t-86.5 220.5zM228 748h103l74 -66h-70z" />
<glyph unicode="&#xda;" horiz-adv-x="648" d="M25 299v330h157v-330q0 -62 40.5 -109t101.5 -47t101.5 47t40.5 109v330h157v-330q0 -127 -86.5 -220.5t-212.5 -93.5t-212.5 93.5t-86.5 220.5zM246 677l74 66h103l-107 -66h-70z" />
<glyph unicode="&#xdb;" horiz-adv-x="648" d="M25 299v330h157v-330q0 -62 40.5 -109t101.5 -47t101.5 47t40.5 109v330h157v-330q0 -127 -86.5 -220.5t-212.5 -93.5t-212.5 93.5t-86.5 220.5zM243 673l49 57q12 13 37 13q26 0 36 -14l48 -56h-54q-6 7 -15.5 23t-14.5 22q-6 -7 -16 -22.5t-16 -22.5h-54z" />
<glyph unicode="&#xdc;" horiz-adv-x="648" d="M25 299v330h157v-330q0 -62 40.5 -109t101.5 -47t101.5 47t40.5 109v330h157v-330q0 -127 -86.5 -220.5t-212.5 -93.5t-212.5 93.5t-86.5 220.5zM225 705q0 16 11 27t27 11t27 -11t11 -27t-11 -27t-27 -11t-27 11t-11 27zM332 706q0 16 11 27t27 11t27 -11t11 -27 t-11 -27t-27 -11t-27 11t-11 27z" />
<glyph unicode="&#xdd;" horiz-adv-x="642" d="M19 634h173l109 -253q47 83 135 253h181l-137 -258q-12 -21 -33 -61.5t-39 -73t-35 -60.5l-24 -43q-33 -59 -100 -98.5t-134 -39.5h-90v159h90q22 0 48 14t41 33zM225 652l74 66h103l-107 -66h-70z" />
<glyph unicode="&#xde;" horiz-adv-x="643" d="M25 0v633h159v-67h195q100 0 169.5 -74.5t69.5 -175.5t-69 -175t-170 -74h-195v-67h-159zM184 225h195q34 0 57 28t23 63t-22.5 63t-57.5 28h-195v-182z" />
<glyph unicode="&#xdf;" d="M25 0v442q0 75 47 133t120 58h245q79 0 134.5 -56t55.5 -135q0 -76 -36 -126q36 -50 36 -111v-15q0 -78 -55.5 -134t-134.5 -56h-158v159h158q13 0 22.5 9t9.5 22q0 47 -32 47h-253v-237h-159zM184 396h253q13 0 22.5 9t9.5 22v15q0 13 -9.5 22.5t-22.5 9.5h-242 q-11 -8 -11 -32v-46z" />
<glyph unicode="&#xe0;" horiz-adv-x="728" d="M25 190v15q0 79 56 135t134 56h182q-8 25 -14.5 39t-22.5 26.5t-38 12.5h-243v159h243q70 0 131.5 -48.5t85.5 -116.5l164 -468h-168l-83 237h-237q-13 0 -22 -9.5t-9 -22.5q0 -46 31 -46h222v-159h-222q-78 0 -134 56t-56 134zM95 747h103l74 -66h-70z" />
<glyph unicode="&#xe1;" horiz-adv-x="728" d="M25 190v15q0 79 56 135t134 56h182q-8 25 -14.5 39t-22.5 26.5t-38 12.5h-243v159h243q70 0 131.5 -48.5t85.5 -116.5l164 -468h-168l-83 237h-237q-13 0 -22 -9.5t-9 -22.5q0 -46 31 -46h222v-159h-222q-78 0 -134 56t-56 134zM178 679l74 66h103l-107 -66h-70z" />
<glyph unicode="&#xe2;" horiz-adv-x="728" d="M25 190v15q0 79 56 135t134 56h182q-8 25 -14.5 39t-22.5 26.5t-38 12.5h-243v159h243q70 0 131.5 -48.5t85.5 -116.5l164 -468h-168l-83 237h-237q-13 0 -22 -9.5t-9 -22.5q0 -46 31 -46h222v-159h-222q-78 0 -134 56t-56 134zM126 675l49 57q12 13 37 13q26 0 36 -14 l48 -56h-54q-6 7 -15.5 23t-14.5 22q-6 -7 -16 -22.5t-16 -22.5h-54z" />
<glyph unicode="&#xe3;" horiz-adv-x="728" d="M25 190v15q0 79 56 135t134 56h182q-8 25 -14.5 39t-22.5 26.5t-38 12.5h-243v159h243q70 0 131.5 -48.5t85.5 -116.5l164 -468h-168l-83 237h-237q-13 0 -22 -9.5t-9 -22.5q0 -46 31 -46h222v-159h-222q-78 0 -134 56t-56 134zM127 702q17 41 47 41q14 0 34 -14 q20 -15 25 -15q11 0 20 17l27 -18q-20 -38 -47 -38q-13 0 -33 14t-26 14q-8 0 -19 -17z" />
<glyph unicode="&#xe4;" horiz-adv-x="728" d="M25 190v15q0 79 56 135t134 56h182q-8 25 -14.5 39t-22.5 26.5t-38 12.5h-243v159h243q70 0 131.5 -48.5t85.5 -116.5l164 -468h-168l-83 237h-237q-13 0 -22 -9.5t-9 -22.5q0 -46 31 -46h222v-159h-222q-78 0 -134 56t-56 134zM110 706q0 16 11 27t27 11t27 -11t11 -27 t-11 -27t-27 -11t-27 11t-11 27zM217 707q0 16 11 27t27 11t27 -11t11 -27t-11 -27t-27 -11t-27 11t-11 27z" />
<glyph unicode="&#xe5;" horiz-adv-x="728" d="M25 190v15q0 79 56 135t134 56h182q-8 25 -14.5 39t-22.5 26.5t-38 12.5h-243v159h80q-7 13 -7 32q0 28 20.5 48.5t49.5 20.5q28 0 48.5 -20t20.5 -49q0 -18 -8 -32h39q70 0 131.5 -48.5t85.5 -116.5l164 -468h-168l-83 237h-237q-13 0 -22 -9.5t-9 -22.5q0 -46 31 -46 h222v-159h-222q-78 0 -134 56t-56 134zM190 665q0 -13 8 -21.5t20 -10.5h8q11 2 19 10.5t8 21.5t-9 22t-22 9t-22.5 -9t-9.5 -22z" />
<glyph unicode="&#xe6;" horiz-adv-x="1100" d="M25 190v15q0 79 56 135t134 56h182q-8 25 -14.5 39t-22.5 26.5t-38 12.5h-295v159h295q56 0 107.5 -32t84.5 -82q44 55 106.5 86t134.5 31h136q76 0 130 -54t54 -130v-29q0 -76 -54 -130.5t-130 -54.5h-210v159h210q10 0 17.5 8t7.5 18v9v10.5t-0.5 10t-2 10t-4.5 7.5 t-7.5 6t-10.5 2h-136q-64 0 -108 -47.5t-44 -112.5q0 -64 44 -111.5t108 -47.5h299v-159h-299q-108 0 -191 68t-110 171h-2v-2h-237q-13 0 -22 -9.5t-9 -22.5q0 -46 31 -46h222v-159h-222q-78 0 -134 56t-56 134z" />
<glyph unicode="&#xe7;" horiz-adv-x="573" d="M25 316q0 131 88 224t213 93h222v-159h-222q-59 0 -100.5 -46.5t-41.5 -111.5t41.5 -111t100.5 -46h222v-159h-167l-20 -48q33 -7 54 -34t21 -61q0 -39 -27 -68t-65 -29h-94l20 48h74q19 0 31.5 15t12.5 34q0 14 -5 24t-10.5 15t-19 7.5t-19.5 3t-23 0t-20 -0.5l38 94h-3 q-124 0 -212.5 92.5t-88.5 223.5z" />
<glyph unicode="&#xe8;" horiz-adv-x="680" d="M25 318q0 130 90.5 224t219.5 94h136q76 0 130 -54t54 -130v-29q0 -76 -54 -130.5t-130 -54.5h-210v159h210q11 0 18.5 7.5t7.5 18.5v9v10.5t-0.5 10t-2.5 10t-4.5 7.5t-7.5 6t-11 2h-136q-64 0 -107.5 -47.5t-43.5 -112.5q0 -64 44 -111.5t107 -47.5h299v-159h-299 q-129 0 -219.5 94t-90.5 224zM265 744h103l74 -66h-70z" />
<glyph unicode="&#xe9;" horiz-adv-x="680" d="M25 318q0 130 90.5 224t219.5 94h136q76 0 130 -54t54 -130v-29q0 -76 -54 -130.5t-130 -54.5h-210v159h210q11 0 18.5 7.5t7.5 18.5v9v10.5t-0.5 10t-2.5 10t-4.5 7.5t-7.5 6t-11 2h-136q-64 0 -107.5 -47.5t-43.5 -112.5q0 -64 44 -111.5t107 -47.5h299v-159h-299 q-129 0 -219.5 94t-90.5 224zM325 679l74 66h103l-107 -66h-70z" />
<glyph unicode="&#xea;" horiz-adv-x="680" d="M25 318q0 130 90.5 224t219.5 94h136q76 0 130 -54t54 -130v-29q0 -76 -54 -130.5t-130 -54.5h-210v159h210q11 0 18.5 7.5t7.5 18.5v9v10.5t-0.5 10t-2.5 10t-4.5 7.5t-7.5 6t-11 2h-136q-64 0 -107.5 -47.5t-43.5 -112.5q0 -64 44 -111.5t107 -47.5h299v-159h-299 q-129 0 -219.5 94t-90.5 224zM303 672l49 57q12 13 37 13q26 0 36 -14l48 -56h-54q-6 7 -15.5 23t-14.5 22q-6 -7 -16 -22.5t-16 -22.5h-54z" />
<glyph unicode="&#xeb;" horiz-adv-x="680" d="M25 318q0 130 90.5 224t219.5 94h136q76 0 130 -54t54 -130v-29q0 -76 -54 -130.5t-130 -54.5h-210v159h210q11 0 18.5 7.5t7.5 18.5v9v10.5t-0.5 10t-2.5 10t-4.5 7.5t-7.5 6t-11 2h-136q-64 0 -107.5 -47.5t-43.5 -112.5q0 -64 44 -111.5t107 -47.5h299v-159h-299 q-129 0 -219.5 94t-90.5 224zM305 707q0 16 11 27t27 11t27 -11t11 -27t-11 -27t-27 -11t-27 11t-11 27zM412 708q0 16 11 27t27 11t27 -11t11 -27t-11 -27t-27 -11t-27 11t-11 27z" />
<glyph unicode="&#xec;" horiz-adv-x="252" d="M2 643h103l88 -174h-70zM47 1v420h158v-420h-158z" />
<glyph unicode="&#xed;" horiz-adv-x="252" d="M47 1v420h158v-420h-158zM51 469l89 170h103l-122 -170h-70z" />
<glyph unicode="&#xee;" horiz-adv-x="252" d="M40 564l49 57q12 13 37 13q26 0 36 -14l48 -56h-54q-6 7 -15.5 23t-14.5 22q-6 -7 -16 -22.5t-16 -22.5h-54zM47 1v420h158v-420h-158z" />
<glyph unicode="&#xef;" horiz-adv-x="252" d="M35 598q0 16 11 27t27 11t27 -11t11 -27t-11 -27t-27 -11t-27 11t-11 27zM47 1v420h158v-420h-158zM142 599q0 16 11 27t27 11t27 -11t11 -27t-11 -27t-27 -11t-27 11t-11 27z" />
<glyph unicode="&#xf0;" horiz-adv-x="645" d="M25 239v159h38v235h256q125 0 213 -93t88 -224t-88.5 -223.5t-212.5 -92.5h-256v239h-38zM221 159h98q59 0 100.5 46t41.5 111t-41.5 111.5t-100.5 46.5h-98v-76h119v-159h-119v-80z" />
<glyph unicode="&#xf1;" horiz-adv-x="648" d="M25 0v334q0 128 86.5 221.5t212.5 93.5t212.5 -93.5t86.5 -221.5v-334h-157v334q0 62 -40.5 109.5t-101.5 47.5t-101.5 -47.5t-40.5 -109.5v-334h-157zM241 704q17 41 47 41q14 0 34 -14q20 -15 25 -15q11 0 20 17l27 -18q-20 -38 -47 -38q-13 0 -33 14t-26 14 q-8 0 -19 -17z" />
<glyph unicode="&#xf2;" horiz-adv-x="701" d="M25 313q0 137 95 235.5t231 98.5t230.5 -98.5t94.5 -235.5q0 -136 -94.5 -235t-230.5 -99t-231 99t-95 235zM182 313q0 -71 49 -123.5t120 -52.5t119.5 52.5t48.5 123.5q0 72 -48.5 124.5t-119.5 52.5t-120 -52.5t-49 -124.5zM215 747h103l74 -66h-70z" />
<glyph unicode="&#xf3;" horiz-adv-x="701" d="M25 313q0 137 95 235.5t231 98.5t230.5 -98.5t94.5 -235.5q0 -136 -94.5 -235t-230.5 -99t-231 99t-95 235zM182 313q0 -71 49 -123.5t120 -52.5t119.5 52.5t48.5 123.5q0 72 -48.5 124.5t-119.5 52.5t-120 -52.5t-49 -124.5zM305 680l74 66h103l-107 -66h-70z" />
<glyph unicode="&#xf4;" horiz-adv-x="701" d="M25 313q0 137 95 235.5t231 98.5t230.5 -98.5t94.5 -235.5q0 -136 -94.5 -235t-230.5 -99t-231 99t-95 235zM182 313q0 -71 49 -123.5t120 -52.5t119.5 52.5t48.5 123.5q0 72 -48.5 124.5t-119.5 52.5t-120 -52.5t-49 -124.5zM263 675l49 57q12 13 37 13q26 0 36 -14 l48 -56h-54q-6 7 -15.5 23t-14.5 22q-6 -7 -16 -22.5t-16 -22.5h-54z" />
<glyph unicode="&#xf5;" horiz-adv-x="701" d="M25 313q0 137 95 235.5t231 98.5t230.5 -98.5t94.5 -235.5q0 -136 -94.5 -235t-230.5 -99t-231 99t-95 235zM182 313q0 -71 49 -123.5t120 -52.5t119.5 52.5t48.5 123.5q0 72 -48.5 124.5t-119.5 52.5t-120 -52.5t-49 -124.5zM271 703q17 41 47 41q14 0 34 -14 q19 -15 25 -15q11 0 20 17l27 -18q-20 -38 -47 -38q-13 0 -33 14t-26 14q-8 0 -19 -17z" />
<glyph unicode="&#xf6;" horiz-adv-x="701" d="M25 313q0 137 95 235.5t231 98.5t230.5 -98.5t94.5 -235.5q0 -136 -94.5 -235t-230.5 -99t-231 99t-95 235zM182 313q0 -71 49 -123.5t120 -52.5t119.5 52.5t48.5 123.5q0 72 -48.5 124.5t-119.5 52.5t-120 -52.5t-49 -124.5zM255 707q0 16 11 27t27 11t27 -11t11 -27 t-11 -27t-27 -11t-27 11t-11 27zM362 708q0 16 11 27t27 11t27 -11t11 -27t-11 -27t-27 -11t-27 11t-11 27z" />
<glyph unicode="&#xf7;" horiz-adv-x="410" d="M25 165v79h360v-79h-360zM154 93q0 20 15 35t36 15t35.5 -15t14.5 -35q0 -21 -14.5 -36t-35.5 -15t-36 15t-15 36zM154 321q0 21 15 35.5t36 14.5t35.5 -14.5t14.5 -35.5t-14.5 -36t-35.5 -15t-36 15t-15 36z" />
<glyph unicode="&#xf8;" horiz-adv-x="701" d="M25 313q0 137 95 235.5t231 98.5q50 0 97 -15h100l-15 -42q66 -46 104.5 -119.5t38.5 -157.5q0 -136 -94.5 -235t-230.5 -99q-59 0 -116 22h-78l12 35q-66 46 -105 119.5t-39 157.5zM182 313q0 -68 43 -117l103 292q-63 -9 -104.5 -59.5t-41.5 -115.5zM374 139 q63 9 104 59t41 115t-42 117z" />
<glyph unicode="&#xf9;" horiz-adv-x="648" d="M25 299v330h157v-330q0 -62 40.5 -109t101.5 -47t101.5 47t40.5 109v330h157v-330q0 -127 -86.5 -220.5t-212.5 -93.5t-212.5 93.5t-86.5 220.5zM225 746h103l74 -66h-70z" />
<glyph unicode="&#xfa;" horiz-adv-x="648" d="M25 299v330h157v-330q0 -62 40.5 -109t101.5 -47t101.5 47t40.5 109v330h157v-330q0 -127 -86.5 -220.5t-212.5 -93.5t-212.5 93.5t-86.5 220.5zM235 679l74 66h103l-107 -66h-70z" />
<glyph unicode="&#xfb;" horiz-adv-x="648" d="M25 299v330h157v-330q0 -62 40.5 -109t101.5 -47t101.5 47t40.5 109v330h157v-330q0 -127 -86.5 -220.5t-212.5 -93.5t-212.5 93.5t-86.5 220.5zM233 674l49 57q12 13 37 13q26 0 36 -14l48 -56h-54q-6 7 -15.5 23t-14.5 22q-6 -7 -16 -22.5t-16 -22.5h-54z" />
<glyph unicode="&#xfc;" horiz-adv-x="648" d="M25 299v330h157v-330q0 -62 40.5 -109t101.5 -47t101.5 47t40.5 109v330h157v-330q0 -127 -86.5 -220.5t-212.5 -93.5t-212.5 93.5t-86.5 220.5zM235 709q0 16 11 27t27 11t27 -11t11 -27t-11 -27t-27 -11t-27 11t-11 27zM342 710q0 16 11 27t27 11t27 -11t11 -27 t-11 -27t-27 -11t-27 11t-11 27z" />
<glyph unicode="&#xfd;" horiz-adv-x="642" d="M19 633h173l109 -252l135 252h181l-137 -257q-12 -21 -33 -61.5t-39 -73t-35 -60.5l-24 -43q-33 -59 -100 -98.5t-134 -39.5h-90v159h90q22 0 48 14t41 33zM235 652l74 66h103l-107 -66h-70z" />
<glyph unicode="&#xfe;" horiz-adv-x="643" d="M25 0v633h159v-67h195q100 0 169.5 -74.5t69.5 -175.5t-69 -175t-170 -74h-195v-67h-159zM184 225h195q34 0 57 28t23 63t-22.5 63t-57.5 28h-195v-182z" />
<glyph unicode="&#xff;" horiz-adv-x="642" d="M19 633h173l109 -252l135 252h181l-137 -257q-12 -21 -33 -61.5t-39 -73t-35 -60.5l-24 -43q-33 -59 -100 -98.5t-134 -39.5h-90v159h90q22 0 48 14t41 33zM215 694q0 16 11 27t27 11t27 -11t11 -27t-11 -27t-27 -11t-27 11t-11 27zM322 695q0 16 11 27t27 11t27 -11 t11 -27t-11 -27t-27 -11t-27 11t-11 27z" />
<glyph unicode="&#x152;" horiz-adv-x="1106" d="M25 316q0 136 95 235t231 99q73 0 138 -32t110 -87q89 102 221 102h261v-159h-261q-39 0 -72 -21.5t-51 -56.5h266v-159h-266q18 -36 51 -57t72 -21h261v-159h-261q-131 0 -221 101q-45 -55 -110 -87t-138 -32q-136 0 -231 98.5t-95 235.5zM182 316q0 -72 48.5 -124.5 t120.5 -52.5q69 0 117 50t51 120v7q0 72 -49 124t-119 52q-71 0 -120 -52.5t-49 -123.5zM518 316v7q1 -2 1 -7v-7z" />
<glyph unicode="&#x153;" horiz-adv-x="1173" d="M25 318q0 137 95 235.5t231 98.5q150 0 249 -119q92 103 229 103h135q76 0 130 -54t54 -130v-29q0 -77 -54 -131t-130 -54h-210v159h210q10 0 18 7.5t8 18.5v9v10.5t-0.5 10t-2.5 10t-4.5 7.5t-7.5 6t-11 2h-135q-64 0 -108 -47.5t-44 -112.5q0 -64 44 -111.5t108 -47.5 h298v-159h-298q-137 0 -229 103q-45 -55 -110 -87t-139 -32q-136 0 -231 98.5t-95 235.5zM182 318q0 -35 13 -67t35 -56t53.5 -38.5t67.5 -14.5q69 0 118 50.5t50 121.5v4v2v2q0 4 -1 7v-22q1 3 1 7v4v4q-1 71 -50 121.5t-118 50.5q-71 0 -120 -52t-49 -124z" />
<glyph unicode="&#x178;" horiz-adv-x="642" d="M19 634h173l109 -253q47 83 135 253h181l-137 -258q-12 -21 -33 -61.5t-39 -73t-35 -60.5l-24 -43q-33 -59 -100 -98.5t-134 -39.5h-90v159h90q22 0 48 14t41 33zM215 694q0 16 11 27t27 11t27 -11t11 -27t-11 -27t-27 -11t-27 11t-11 27zM322 695q0 16 11 27t27 11 t27 -11t11 -27t-11 -27t-27 -11t-27 11t-11 27z" />
<glyph unicode="&#x2c6;" horiz-adv-x="315" d="M73 544l49 57q12 13 37 13q26 0 36 -14l48 -56h-54q-6 7 -15.5 23t-14.5 22q-6 -7 -16 -22.5t-16 -22.5h-54z" />
<glyph unicode="&#x2dc;" horiz-adv-x="206" d="M31 574q17 41 47 41q14 0 34 -14q20 -15 25 -15q11 0 20 17l27 -18q-20 -38 -47 -38q-13 0 -33 14t-26 14q-8 0 -19 -17z" />
<glyph unicode="&#x2000;" horiz-adv-x="374" />
<glyph unicode="&#x2001;" horiz-adv-x="748" />
<glyph unicode="&#x2002;" horiz-adv-x="374" />
<glyph unicode="&#x2003;" horiz-adv-x="748" />
<glyph unicode="&#x2004;" horiz-adv-x="249" />
<glyph unicode="&#x2005;" horiz-adv-x="187" />
<glyph unicode="&#x2006;" horiz-adv-x="124" />
<glyph unicode="&#x2007;" horiz-adv-x="124" />
<glyph unicode="&#x2008;" horiz-adv-x="93" />
<glyph unicode="&#x2009;" horiz-adv-x="149" />
<glyph unicode="&#x200a;" horiz-adv-x="41" />
<glyph unicode="&#x2010;" horiz-adv-x="410" d="M25 237v159h360v-159h-360z" />
<glyph unicode="&#x2011;" horiz-adv-x="410" d="M25 237v159h360v-159h-360z" />
<glyph unicode="&#x2012;" horiz-adv-x="410" d="M25 237v159h360v-159h-360z" />
<glyph unicode="&#x2013;" horiz-adv-x="455" d="M25 237v159h405v-159h-405z" />
<glyph unicode="&#x2014;" horiz-adv-x="540" d="M23 237v159h494v-159h-494z" />
<glyph unicode="&#x2018;" horiz-adv-x="251" d="M25 415q0 73 37.5 129t104.5 91l16 -22q-67 -61 -67 -95q0 -15 23 -23q39 -9 63 -35t24 -65q0 -41 -29.5 -71t-71.5 -30q-48 0 -74 35.5t-26 85.5z" />
<glyph unicode="&#x2019;" horiz-adv-x="251" d="M25 534q0 41 29.5 71t71.5 30q48 0 74 -35.5t26 -85.5q0 -73 -37.5 -129t-104.5 -91l-16 22q67 61 67 95q0 16 -23 22q-39 10 -63 36t-24 65z" />
<glyph unicode="&#x201a;" horiz-adv-x="251" d="M25 86q0 42 29.5 71.5t71.5 29.5q48 0 74 -35.5t26 -85.5q0 -72 -37.5 -128.5t-104.5 -90.5l-16 22q67 61 67 95q0 16 -23 22q-39 10 -63 35.5t-24 64.5z" />
<glyph unicode="&#x201c;" horiz-adv-x="475" d="M25 415q0 73 37.5 129t104.5 91l16 -22q-67 -61 -67 -95q0 -15 23 -23q39 -9 63 -35t24 -65q0 -41 -29.5 -71t-71.5 -30q-48 0 -74 35.5t-26 85.5zM249 410q0 72 37.5 128.5t104.5 90.5l16 -21q-67 -61 -67 -95q0 -17 23 -23q39 -9 63 -35t24 -65q0 -42 -29.5 -71.5 t-71.5 -29.5q-48 0 -74 35.5t-26 85.5z" />
<glyph unicode="&#x201d;" horiz-adv-x="475" d="M25 534q0 41 29.5 71t71.5 30q48 0 74 -35.5t26 -85.5q0 -73 -37.5 -129t-104.5 -91l-16 22q67 61 67 95q0 16 -23 22q-39 10 -63 36t-24 65zM249 528q0 42 29.5 71.5t71.5 29.5q48 0 74 -35t26 -85q0 -73 -37.5 -129.5t-104.5 -90.5l-16 22q67 61 67 95q0 16 -23 22 q-39 10 -63 36t-24 64z" />
<glyph unicode="&#x201e;" horiz-adv-x="475" d="M25 86q0 42 29.5 71.5t71.5 29.5q48 0 74 -35.5t26 -85.5q0 -72 -37.5 -128.5t-104.5 -90.5l-16 22q67 61 67 95q0 16 -23 22q-39 10 -63 35.5t-24 64.5zM249 81q0 42 29.5 71.5t71.5 29.5q48 0 74 -35.5t26 -85.5q0 -72 -37.5 -128.5t-104.5 -90.5l-16 21q67 61 67 95 q0 17 -23 23q-39 9 -63 35t-24 65z" />
<glyph unicode="&#x2022;" horiz-adv-x="397" d="M47 314q0 63 44.5 107.5t107.5 44.5q62 0 106.5 -44.5t44.5 -107.5q0 -62 -44.5 -106.5t-106.5 -44.5q-63 0 -107.5 44.5t-44.5 106.5z" />
<glyph unicode="&#x2026;" horiz-adv-x="746" d="M25 87q0 41 29.5 71t71.5 30t71.5 -30t29.5 -71q0 -42 -29.5 -71.5t-71.5 -29.5t-71.5 29.5t-29.5 71.5zM272 87q0 42 29.5 71.5t71.5 29.5t71.5 -29.5t29.5 -71.5t-29.5 -71.5t-71.5 -29.5t-71.5 29.5t-29.5 71.5zM519 87q0 42 29.5 71.5t71.5 29.5t71.5 -29.5 t29.5 -71.5t-29.5 -71.5t-71.5 -29.5t-71.5 29.5t-29.5 71.5z" />
<glyph unicode="&#x202f;" horiz-adv-x="149" />
<glyph unicode="&#x2039;" horiz-adv-x="282" d="M25 316q0 72 15 128l52 189h165l-64 -231q-9 -30 -9 -86q0 -55 9 -85l64 -231h-165l-52 188q-15 56 -15 128z" />
<glyph unicode="&#x203a;" horiz-adv-x="282" d="M25 0l64 231q9 30 9 85q0 56 -9 86l-64 231h165l52 -189q15 -56 15 -128t-15 -128l-52 -188h-165z" />
<glyph unicode="&#x205f;" horiz-adv-x="187" />
<glyph unicode="&#x20ac;" horiz-adv-x="626" d="M25 212v79h54q0 5 -0.5 13t-0.5 12q0 11 1 17h-52v79h65q30 97 109 159t178 62h222v-159h-222q-71 0 -113 -62h205v-79h-233q-1 -5 -1 -17q0 -16 2 -25h230v-79h-197q43 -53 107 -53h222v-159h-222q-97 0 -175 59t-109 153h-70z" />
<glyph unicode="&#x2122;" horiz-adv-x="448" d="M25 617v16h136v-16h-60v-146h-16v146h-60zM187 468v102q0 26 18.5 44.5t44.5 18.5q37 0 55 -33q18 33 55 33q26 0 44.5 -18.5t18.5 -44.5v-102h-16v102q0 19 -14 33t-33 14t-33 -14t-14 -33v-102h-16v102q0 19 -14 33t-33 14t-33 -14t-14 -33v-102h-16z" />
<glyph unicode="&#xe000;" horiz-adv-x="630" d="M0 0v630h630v-630h-630z" />
</font>
</defs>
</svg>
